Recommend
First CAM
Avengers Endgame 2019 480p HDCAM V2 Dual Audio 700MB Hindi-English x264 CineVood ExclusiveAvengers Endgame 2019 720p HDCAM V2 Dual Audio 1.2GB Hindi-English x264 CineVood ExclusiveAvengers Endgame 2019 NEW 720p HDCAM-1XBETI Spit on Your Grave Deja Vu.2019.BDRip.XviD.AC3-EVO

WEB/HDRip
Avengers Endgame 2019 480p HDCAM V2 Dual Audio 700MB Hindi-English x264 CineVood ExclusiveAvengers Endgame 2019 720p HDCAM V2 Dual Audio 1.2GB Hindi-English x264 CineVood ExclusiveAvengers Endgame 2019 NEW 720p HDCAM-1XBETI Spit on Your Grave Deja Vu.2019.BDRip.XviD.AC3-EVO

Bluray/DVDs
Avengers Endgame 2019 480p HDCAM V2 Dual Audio 700MB Hindi-English x264 CineVood ExclusiveAvengers Endgame 2019 720p HDCAM V2 Dual Audio 1.2GB Hindi-English x264 CineVood ExclusiveAvengers Endgame 2019 NEW 720p HDCAM-1XBETI Spit on Your Grave Deja Vu.2019.BDRip.XviD.AC3-EVO

TV
Avengers Endgame 2019 480p HDCAM V2 Dual Audio 700MB Hindi-English x264 CineVood ExclusiveAvengers Endgame 2019 720p HDCAM V2 Dual Audio 1.2GB Hindi-English x264 CineVood ExclusiveAvengers Endgame 2019 NEW 720p HDCAM-1XBETI Spit on Your Grave Deja Vu.2019.BDRip.XviD.AC3-EVO


Torrent Details For "18+.Marfa.Girl.2.2018.HDRip.XviD.AC3.LLG"

Torrent details
Cover
Download
Name:
18+.Marfa.Girl.2.2018.HDRip.XviD.AC3.LLG
Controls:
Category:
Movies > HDRips
Language:
 EnglishEnglish
Total Size:
967.26 MB
Info Hash:
08875d92405fab121244bf3036e454b1503fe5c5
Added By:
Unknown/NA
Added:
26-04-2019 20:16:30
Views:
133
Health:
Seeders:
80
Leechers:
72
Completed:
90

Movie Information
Title:
Genre:
Drama
Runtime:
97 minutes
Rating:
5.5/10
Votes:
104
Country:
USA
Language:
English
Director:
Writer:
Music:
Tagline:
Plot:
A young mother living in Marfa, Texas struggles to raise her child after suffering from a brutal sexual assault.
Trailer:


Description

Quote:



******************************Thumbnail:**********************

 

******************************Screenshots:********************

 Screenshot 1

 Screenshot 2

 Screenshot 3

 Screenshot 4

 Screenshot 5

 Screenshot 6

 Screenshot 7

 Screenshot 8

 Screenshot 9

 Screenshot 0


******************************************************

18+.Marfa.Girl.2.2018.HDRip.XviD.AC3.LLG.mp4
Format                                   : MPEG-4
Format profile                           : Base Media
Codec ID                                 : isom (isom/iso2/avc1/mp41)
File size                                : 939 MiB
Duration                                 : 1 h 14 min
Overall bit rate mode                    : Variable
Overall bit rate                         : 1 764 kb/s
Writing application                      : Lavf57.83.100

Video
ID                                       : 1
Format                                   : AVC
Format/Info                              : Advanced Video Codec
Format profile                           : [email protected]
Format settings                          : CABAC / 1 Ref Frames
Format settings, CABAC                   : Yes
Format settings, RefFrames               : 1 frame
Codec ID                                 : avc1
Codec ID/Info                            : Advanced Video Coding
Duration                                 : 1 h 14 min
Bit rate mode                            : Variable
Bit rate                                 : 1 377 kb/s
Maximum bit rate                         : 4 500 kb/s
Width                                    : 720 pixels
Height                                   : 304 pixels
Display aspect ratio                     : 2.35:1
Frame rate mode                          : Constant
Frame rate                               : 23.976 (23976/1000) FPS
Color space                              : YUV
Chroma subsampling                       : 4:2:0
Bit depth                                : 8 bits
Scan type                                : Progressive
Bits/(Pixel*Frame)                       : 0.262
Stream size                              : 732 MiB (78%)
Codec configuration box                  : avcC

Audio
ID                                       : 2
Format                                   : AC-3
Format/Info                              : Audio Coding 3
Commercial name                          : Dolby Digital
Codec ID                                 : ac-3
Duration                                 : 1 h 14 min
Bit rate mode                            : Constant
Bit rate                                 : 384 kb/s
Channel(s)                               : 6 channels
Channel layout                           : L R C LFE Ls Rs
Sampling rate                            : 48.0 kHz
Frame rate                               : 31.250 FPS (1536 SPF)
Bit depth                                : 16 bits
Compression mode                         : Lossy
Stream size                              : 204 MiB (22%)
Service kind                             : Complete Main
Default                                  : Yes
Alternate group                          : 1





********************************************************




Comments

No comments still posted

Top
Copyright 2019 FOXTorrents.net -|- Page Generated In 0.892134 secs.
-|- RSS Feed -|- Feed Info